Torrent Details For "Vita da giungla - Alla riscossa - The Jungle Bunch (2017) H264 italian french Ac3-5 1..."

Vita da giungla - Alla riscossa - The Jungle Bunch (2017) H264 italian french Ac3-5 1...

To download this torrent, you need a BitTorrent client: Vuze or BTGuard
Download this torrent
Download using Magnet Link

Health:
Seeds: 12
Leechers: 59
Completed:
Last Checked: 30-10-2018 12:45:29

Uploader Reputation points : 2380
External: Torrent



BTGuard - BitTorrent Anonymously


Write a Review for the Uploader:   0   Say Thanks with one good review:


Details
Name:Vita da giungla - Alla riscossa - The Jungle Bunch (2017) H264 italian french Ac3-5 1...
Description:
Vita da giungla - Alla riscossa - The Jungle Bunch (2017).H264.italian.french.Ac3-5.1.sub.ita-MIRCrew


NO FOUND ONLY ORIGINAL RELEASE


My release is always in double track audio italian and Original audio
for select it use VLC or dvd player home
not use wmp

Vita da giungla - Alla riscossa - The Jungle Bunch (2017)







DATA USCITA: 19 ottobre 2017
GENERE: Animazione
ANNO: 2017
REGIA: David Alaux, Eric Tosti
PAESE: Francia
DURATA: 97 Min



   ________________




Il pinguino Maurice non solo si è adattato al clima tropicale della Giungla, ma ne è diventato anche il più abile e tenace paladino. Il Grande Guerriero Tigre, cosparso di vernice arancione per assomigliare agli amorevoli felini che l'hanno adottato, si pone alla testa di una piccola squadra di valorosi, una sorta di pattuglia della natura che interviene a combattere ingiustizie e sbrogliare grattacapi.



Maurice may look like a penguin - but he's a real tiger inside! Raised by a tigress, he's the clumsiest Kung-Fu master ever. Along with his friends, The Jungle Bunch, he intends to maintain...  








General
Unique ID                                : 165646798019315847363859401429648038058 (0x7C9E69B0850955812BECC51FC6CE58AA)
Complete name                            : Vita da giungla - Alla riscossa - The Jungle Bunch.ita.fre.sub.ita-MIRCrew\Vita da giungla - Alla riscossa - The Jungle Bunch.ita.fre.sub.ita-MIRCrew.mkv
Format                                   : Matroska
Format version                           : Version 2
File size                                : 1.35 GiB
Duration                                 : 1h 33mn
Overall bit rate                         : 2 063 Kbps
Encoded date                             : UTC 2018-09-25T13:12:19Z
Writing application                      : HandBrake 0.10.5 2016021100
Writing library                          : Lavf55.12.0

Video
ID                                       : 1
Format                                   : AVC
Format/Info                              : Advanced Video Codec
Format profile                           : [email protected]
Format settings, CABAC                   : Yes
Format settings, ReFrames                : 4 frames
Codec ID                                 : V_MPEG4/ISO/AVC
Duration                                 : 1h 33mn
Bit rate                                 : 1 300 Kbps
Width                                    : 720 pixels
Height                                   : 300 pixels
Display aspect ratio                     : 2.40:1
Frame rate mode                          : Variable
Frame rate                               : 25.000 fps
Color space                              : YUV
Chroma subsampling                       : 4:2:0
Bit depth                                : 8 bits
Scan type                                : Progressive
Bits/(Pixel*Frame)                       : 0.241
Stream size                              : 840 MiB (61%)
Writing library                          : x264 core 142 r2479 dd79a61
Encoding settings                        : cabac=1 / ref=3 / deblock=1:0:0 / analyse=0x3:0x113 / me=hex / subme=7 / psy=1 / psy_rd=1.00:0.00 / mixed_ref=1 / me_range=16 / chroma_me=1 / trellis=1 / 8x8dct=1 / cqm=0 / deadzone=21,11 / fast_pskip=1 / chroma_qp_offset=-2 / threads=6 / lookahead_threads=1 / sliced_threads=0 / nr=0 / decimate=1 / interlaced=0 / bluray_compat=0 / constrained_intra=0 / bframes=3 / b_pyramid=2 / b_adapt=1 / b_bias=0 / direct=1 / weightb=1 / open_gop=0 / weightp=2 / keyint=250 / keyint_min=25 / scenecut=40 / intra_refresh=0 / rc_lookahead=40 / rc=abr / mbtree=1 / bitrate=1300 / ratetol=1.0 / qcomp=0.60 / qpmin=0 / qpmax=69 / qpstep=4 / vbv_maxrate=62500 / vbv_bufsize=78125 / nal_hrd=none / filler=0 / ip_ratio=1.40 / aq=1:1.00
Default                                  : Yes
Forced                                   : No
Color primaries                          : BT.470-6 System B, BT.470-6 System G, BT.601-6 625, BT.1358 625, BT.1700 625 PAL, BT.1700 625 SECAM
Transfer characteristics                 : BT.709-5, BT.1361
Matrix coefficients                      : BT.601-6 525, BT.1358 525, BT.1700 NTSC, SMPTE 170M

Audio #1
ID                                       : 2
Format                                   : AC-3
Format/Info                              : Audio Coding 3
Mode extension                           : CM (complete main)
Codec ID                                 : A_AC3
Duration                                 : 1h 33mn
Bit rate mode                            : Constant
Bit rate                                 : 384 Kbps
Channel(s)                               : 6 channels
Channel positions                        : Front: L C R, Side: L R, LFE
Sampling rate                            : 48.0 KHz
Bit depth                                : 16 bits
Compression mode                         : Lossy
Delay relative to video                  : 1mn 5s
Stream size                              : 257 MiB (19%)
Title                                    : Surround
Language                                 : Italian
Default                                  : Yes
Forced                                   : No

Audio #2
ID                                       : 3
Format                                   : AC-3
Format/Info                              : Audio Coding 3
Mode extension                           : CM (complete main)
Codec ID                                 : A_AC3
Duration                                 : 1h 33mn
Bit rate mode                            : Constant
Bit rate                                 : 384 Kbps
Channel(s)                               : 6 channels
Channel positions                        : Front: L C R, Side: L R, LFE
Sampling rate                            : 48.0 KHz
Bit depth                                : 16 bits
Compression mode                         : Lossy
Delay relative to video                  : 1mn 5s
Stream size                              : 257 MiB (19%)
Title                                    : Surround
Language                                 : french
Default                                  : No
Forced                                   : No

Text
ID                                       : 4
Format                                   : VobSub
Codec ID                                 : S_VOBSUB
Codec ID/Info                            : The same subtitle format used on DVDs
Language                                 : Italian
Default                                  : No
Forced                                   : No

Menu
00:00:00.000                             : :Chapter 1
00:00:17.000                             : :Chapter 2
00:09:16.040                             : :Chapter 3
00:18:25.600                             : :Chapter 4
00:24:00.760                             : :Chapter 5
00:35:45.160                             : :Chapter 6
00:42:52.400                             : :Chapter 7
00:50:33.240                             : :Chapter 8
01:01:03.040                             : :Chapter 9
01:08:52.760                             : :Chapter 10
01:15:07.040                             : :Chapter 11
01:21:51.280                             : :Chapter 12
01:29:31.800                             : :Chapter 13

YouTube Video:
Category:Mobile
Language:Italian  Italian
Total Size:1.35 GB
Info Hash:B7958AD71941841E78906493E52922D8E548EC90
Added By:robbyrs
Date Added:30-10-2018 12:43:16
Torrent Status:Torrent Verified by SaM Super Administrator on 30th October, 2018


Ratings:Not Yet Rated (Log in to rate it)


Tracker:
udp://tracker.coppersurfer.tk:6969/announce

This Torrent also has backup trackers
URLSeedersLeechersCompleted
udp://tracker.coppersurfer.tk:6969/announce2190
udp://tracker.torrent.eu.org:451/announce100
udp://tracker.pirateparty.gr:6969/announce2190
udp://tracker.opentrackr.org:1337/announce110
udp://tracker.leechers-paradise.org:6969/announce000
udp://tracker.eddie4.nl:6969/announce000
udp://shadowshq.yi.org:6969/announce000
udp://shadowshq.eddie4.nl:6969/announce000
udp://inferno.demonoid.pw:3391/announce000
udp://eddie4.nl:6969/announce000
udp://9.rarbg.to:2730/announce100
udp://9.rarbg.com:2710/announce100
udp://9.rarbg.me:2780/announce100
udp://62.138.0.158:6969/announce2200
udp://151.80.120.114:2710/announce100


File List: 



Warning! Do not Download Torrents Without a VPN!
Your IP Address is .   Location is
Your Internet Provider and Government can track your torrent Activity! Hide your IP ADDRESS with a VPN!
We strongly recommend using SpyOFF VPN to anonymize your Torrenting.It's FREE!
START YOUR FREE TRIAL NOW!


Comments
No comments still posted




John Schwab | Steel Door Spindle For UPVC ALL OTHER Door Handles and Door Knobs 8mm | greys antomy