Torrent Details For "The Predator 2018 HC HDRip AAC 2 0 x264 [MW]"

The Predator 2018 HC HDRip AAC 2 0 x264 [MW]

To download this torrent, you need a BitTorrent client: Vuze or BTGuard
Download this torrent
Download using Magnet Link

Health:
Seeds: 179
Leechers: 43
Completed: 1,153 
Last Checked: 10-11-2018 08:50:27

Uploader Reputation points : 4972
External: Torrent



BTGuard - BitTorrent Anonymously


Write a Review for the Uploader:   20   Say Thanks with one good review:


Details
Name:The Predator 2018 HC HDRip AAC 2 0 x264 [MW]
Description:
 
 General
Format : Matroska
Format version : Version 4 / Version 2
File size : 779 MiB
Duration : 1 h 46 min
Overall bit rate : 1 020 kb/s
 Video
ID : 1
Format : AVC
Format/Info : Advanced Video Codec
Format profile : [email protected]  Format settings : CABAC / 4 Ref Frames
Format settings, CABAC : Yes
Format settings, RefFrames : 4 frames
Codec ID : V_MPEG4/ISO/AVC
Duration : 1 h 46 min
Bit rate : 900 kb/s
Width : 720 pixels
Height : 304 pixels
Display aspect ratio : 2.35:1
Frame rate mode : Constant
Frame rate : 30.000 FPS
Color space : YUV
Chroma subsampling : 4:2:0
Bit depth : 8 bits
Scan type : Progressive
Bits/(Pixel*Frame) : 0.137
Stream size : 691 MiB (89%)
Writing library : x264 core 155 r2901 7d0ff22
Default : Yes
Forced : No
 Audio
ID : 2
Format : AAC
Format/Info : Advanced Audio Codec
Format profile : LC
Codec ID : A_AAC-2
Duration : 1 h 46 min
Bit rate : 112 kb/s
Channel(s) : 2 channels
Channel positions : Front: L R
Sampling rate : 48.0 kHz
Frame rate : 46.875 FPS (1024 SPF)
Compression mode : Lossy
Stream size : 85.9 MiB (11%)
Language : English
Default : Yes
Forced : No
        http://pichub.site/image/Vop6k               http://pichub.site/image/Vo54Q               http://pichub.site/image/Vo6rd               http://pichub.site/image/VolCv               http://pichub.site/image/VoPQ9                  http://pichub.site/image/VosNR
 
YouTube Video:
Category:Movies
Language:English  English
Total Size:778.85 MB
Info Hash:36AAE2975532D94238534FFBEE9AC65E0C4FBC50
Added By:MovieFreak Verified UploaderMovie Pirate
Date Added:09-11-2018 09:18:03
Torrent Status:Torrent Verified


Ratings:Not Yet Rated (Log in to rate it)


Tracker:
udp://tracker.coppersurfer.tk:6969/announce

This Torrent also has backup trackers
URLSeedersLeechersCompleted
udp://tracker.coppersurfer.tk:6969/announce3115221
udp://tracker.pirateparty.gr:6969/announce000
udp://tracker.coppersurfer.tk:6969/announce3115221
udp://tracker.tiny-vps.com:6969/announce000
udp://9.rarbg.me:2740/announce272305
udp://9.rarbg.to:2790/announce000
udp://public.popcorn-tracker.org:6969/announce204108
udp://tracker.vanitycore.co:6969/announce202100
udp://tracker.opentrackr.org:1337/announce292127
udp://open.stealth.si:80/announce21371


File List: 



Warning! Do not Download Torrents Without a VPN!
Your IP Address is .   Location is
Your Internet Provider and Government can track your torrent Activity! Hide your IP ADDRESS with a VPN!
We strongly recommend using SpyOFF VPN to anonymize your Torrenting.It's FREE!
START YOUR FREE TRIAL NOW!


Comments
No comments still posted




[HorribleSubs] Mobile Suit Gundam Unicorn RE 0096 - 14 [720p].mkv | Fear The Walking Dead [S01E02] [720p] [BluRay] [AC3] [x264-Ralf] [Lektor PL] [AgusiQ] [POLISH VOICE OVER] | Season 5 Episode 15 Fighting Fire with Fire